Skip to main content

Dopapod Live at Disc Jam Music Festival on 2013-06-15

by Dopapod

Topics disc jam 2013


1. Intro - Circle Of Life #
2. FABA
3. Psycho Nature
4. Bluetooth
5. My Elephant vs. Your Elephant
6. Zeus
7. Give It A Name
8. Banter
9. Renegade %
10. Vol. 3 #86 >
11. Braindead
12. Priorities
13. Live and Let Die &
14. crowd
15. banter

# Lion King
% w/ members of Turkuaz
& Paul McCartney


Collection Dopapod
Band/Artist Dopapod
Venue Disc Jam Music Festival
Location Brimfield, MA

Source Schoeps MK41/MK22>Sonosax SX-R4 & SB>SX-R4
Lineage WAV>USB>Macbook Pro>Audacity(mixing)>Wave Editor(tracking,fades,resample(izotope)/dither(mbit+)to 16 bit/44.1k)>XAct(FLAC 8,ffp,fix sbe)
Taped by Andy Murray
Transferred by Andy Murray

Notes

Dopapod
2013-06-15
Disc Jam Music Festival
Brimfield, MA

Mics were just left of center

MK22s were 21cm/110 degrees
MK41s were DIN

Source:
Schoeps MK41>KC5>CMC6>Sonosax SX-R4 &
Schoeps mk22>Nbob actives>Naiant PFAs>Sonosax SX-R4 &
Soundboard>Sonosax SX-R4 (24bit/48khz)

Lineage:
WAV>USB>Macbook Pro>Audacity(mixing)>Wave Editor(tracking,fades,resample(izotope)/dither(mbit+)to 16 bit/44.1k)>XAct(FLAC 8,ffp,fix sbe)

Taped by: Andy Murray
Transferred by: Andy Murray

Thanks to Luke Stratton for the board feed.

1 Set

length expanded size cdr WAVE problems fmt ratio filename
2:41.72 28569788 B --- -- ----- wav 1.0000 dopapod2013-06-15_mk22mk41sbmix_1644_d1t01.wav
14:30.30 153538604 B --- -- ----- wav 1.0000 dopapod2013-06-15_mk22mk41sbmix_1644_d1t02.wav
10:54.09 115386812 B --- -- ----- wav 1.0000 dopapod2013-06-15_mk22mk41sbmix_1644_d1t03.wav
7:50.32 82983308 B --- -- ----- wav 1.0000 dopapod2013-06-15_mk22mk41sbmix_1644_d1t04.wav
12:16.11 129856316 B --- -- ----- wav 1.0000 dopapod2013-06-15_mk22mk41sbmix_1644_d1t05.wav
4:33.72 48326588 B --- -- ----- wav 1.0000 dopapod2013-06-15_mk22mk41sbmix_1644_d1t06.wav
11:46.60 124679564 B --- -- ----- wav 1.0000 dopapod2013-06-15_mk22mk41sbmix_1644_d1t07.wav
2:33.15 27024524 B --- -- ----- wav 1.0000 dopapod2013-06-15_mk22mk41sbmix_1644_d1t08.wav
7:01.39 74356172 B --- -- ----- wav 1.0000 dopapod2013-06-15_mk22mk41sbmix_1644_d1t09.wav
16:13.05 171649004 B --- -- ----- wav 1.0000 dopapod2013-06-15_mk22mk41sbmix_1644_d1t10.wav
9:22.16 99174476 B --- -- ----- wav 1.0000 dopapod2013-06-15_mk22mk41sbmix_1644_d1t11.wav
6:44.22 71317388 B --- -- ----- wav 1.0000 dopapod2013-06-15_mk22mk41sbmix_1644_d1t12.wav
4:10.18 44142380 B --- -- ----- wav 1.0000 dopapod2013-06-15_mk22mk41sbmix_1644_d1t13.wav
1:55.20 20333084 B --- -- ----- wav 1.0000 dopapod2013-06-15_mk22mk41sbmix_1644_d1t14.wav
1:27.41 15443276 B --- -- ----- wav 1.0000 dopapod2013-06-15_mk22mk41sbmix_1644_d1t15.wav
114:01.12 1206781284 B 1.0000 (15 files)

Reviews

Reviewer: diskobean - - June 22, 2013
Subject: SICK show & recording!
As always, Andy captured an amazing night of Dopapod. Thats one killer setlist. And the recording is pristine ;) I am biased because I prefer Schoeps mics, but this source is the best one ive heard so far. Sorry Ted :)

Anyone debating to DL this, just do it, you WILL NOT be disappointed ;)

Thanks Andy! Now I want a Sonosax SX-R4!
DOWNLOAD OPTIONS
In Collection
Dopapod
In Collection
Live Music Archive
Uploaded by
andyjah
on 6/18/2013
Views
547
Favorites
1
Reviews
1
PEOPLE ALSO FOUND
Dopapod
by Dopapod
75
0
0
Source: Schoeps MK4>KC5>CMC6>Sonosax SX-R4(24bit/96khz)
Dopapod
by Dopapod
51
0
0
Source: Schoeps MK4>KC5>CMC6>Sonosax SX-M2>Apogee Mini-me(aes out,24bit/96khz)>COAX>Edirol R-44
Dopapod
by Dopapod
41
0
0
Source: Schoeps MK4>KC5>CMC6>Sonosax SX-R4(24bit/96khz) & Soundboard>SX-R4
Dopapod
by Dopapod
34
0
0
Source: Schoeps MK4>KC5>CMC6>Sonosax SX-R4(24bit/96khz)
Dopapod
by Dopapod
99
0
0
Source: Schoeps MK4>KC5>CMC6>Sonosax SX-R4(24bit/96khz) & Soundboard>R-4
Dopapod
by Dopapod
324
0
0
Source: Schoeps Mk41>KC5>CMC6>Sonosax SX-R4(24bit/96khz) & Soundboard
Dopapod
by Dopapod
79
0
0
Source: Schoeps MK4>KC5>CMC6>Sonosax SX-R4(24bit/96khz) & Soundboard>SX-R4
Dopapod
by Dopapod
41
0
0
Source: Schoeps MK41>KC5>CMC6>Sonosax SX-M2>Apogee Mini-me(aes out,24bit/96khz)>COAX>Edirol R-44 & Soundboard>R-44
Source: Schoeps MK41>KC5>CMC6>Sonosax SX-M2>Apogee Mini-me(aes out,24bit/96khz)>COAX>Edirol R-44
Dopapod
by Dopapod
112
0
0
Source: Schoeps MK22/MK4>KC5>CMC6>Sonosax SX-R4(24bit/48khz) & SB>SX-R4